极品社区

 找回密码
 注册帐号
楼主: 超级管理员
收起左侧

如何正确使用Exact Audio Copy抓取无损音乐

[复制链接]

该用户从未签到

gzyffx 发表于 2011-11-16 16:01:27 | 显示全部楼层
非常好的教材啊,实在是很难得!谢谢你谢正!
回复

使用道具 举报

10111001 该用户已被删除
10111001 发表于 2011-12-21 12:53:05 | 显示全部楼层
谢谢楼主分享{:soso_e100:}
回复

使用道具 举报

该用户从未签到

lzfg99 发表于 2011-12-27 13:49:33 | 显示全部楼层
6# 谢正 我刚开始学习用EAC抓轨,特在此请教。我这里试着抓了张整轨的,LOG文件如下: "EAC 抓取日志文件从14. 十二月 2011, 0:24 用于 CD 未知艺术家 / 未知标题 使用驱动器 :ATAPI iHDS118 5 Adapter: 2 ID: 1 读取模式 :不使用 C2,使用精确流, 禁用缓存的安全模式 读取偏移校正:0 读取 Lead-In 和 Lead-Out : 否 所用输出模式:内部 WAV 函数 44.100 Hz;16 Bit;立体声 其他选项 : 用静音填充抓取中丢失偏移的采样 : 是 去除首尾静音块 : 否 Win NT 及 2000 本地 Win32 接口 范围状态及错误 已选择范围 文件名 E:\新建文件夹\CDImage.wav 峰值电平 100.0 % 范围质量 100.0 % CRC A1EDEC75 复制成功 没有错误发生 状态报告结尾" 请教一下,上面这个LOG文件对吗,或者说EAC设置得对吗?我看了一下别人的LOG文件,里面还有这个部分:  被抓轨 CD 的 TOC 音轨 | 开始 | 长度 | 起始扇区 | 结尾扇区 -------------------------------------------------- 1 | 0:00.00 | 2:04.17 | 0 | 9316 2 | 2:04.17 | 3:38.32 | 9317 | 25698 3 | 5:42.49 | 2:58.42 | 25699 | 39090 4 | 8:41.16 | 3:33.66 | 39091 | 55131 5 | 12:15.07 | 3:25.37 | 55132 | 70543 6 | 15:40.44 | 3:42.33 | 70544 | 87226 7 | 19:23.02 | 3:11.43 | 87227 | 101594 8 | 22:34.45 | 3:25.19 | 101595 | 116988 我的LOG里面没有,是如何设置出来的?谢谢!
回复

使用道具 举报

8282699 该用户已被删除
8282699 发表于 2012-6-17 00:28:52 | 显示全部楼层
感谢楼主分享{:soso_e179:}
回复

使用道具 举报

ysw 该用户已被删除
ysw 发表于 2012-10-13 11:13:55 | 显示全部楼层
一个详细的教程,谢谢楼主分享。
回复

使用道具 举报

  • TA的每日心情
    开心
    2020-2-10 17:18
  • 签到天数: 19 天

    [LV.4]签到中级

    newhand 发表于 2013-3-18 11:16:20 | 显示全部楼层
    楼主,我在网上下载了1.0.0.2版的EAC,安装后设置中没有出现压缩选项中第一个图标,不知是哪里的问题?能否请楼主发送一个EAC v0.99版本?
    回复

    使用道具 举报

  • TA的每日心情
    开心
    2018-9-5 20:40
  • 签到天数: 9 天

    [LV.3]签到初级

    wuweibing 发表于 2013-8-19 11:29:03 | 显示全部楼层
    好教程感谢分享。。。。。。。
    回复

    使用道具 举报

    与鱼共伍 该用户已被删除
    与鱼共伍 发表于 2013-10-9 12:02:55 | 显示全部楼层
    我昨晚试玩了一下,DTS-CD可抓取成WAV。6声道无损真爽。。。。
    回复

    使用道具 举报

    zsw2013 该用户已被删除
    zsw2013 发表于 2013-10-22 18:43:50 | 显示全部楼层
    谢谢学习学习嘻嘻嘻嘻嘻嘻嘻嘻嘻嘻嘻嘻嘻嘻嘻嘻嘻嘻
    回复

    使用道具 举报

    ght0171 该用户已被删除
    ght0171 发表于 2013-12-24 08:10:13 | 显示全部楼层
         

    Thanks for sharing so useful learning classes
    回复

    使用道具 举报

    您需要登录后才可以回帖 登录 | 注册帐号

    本版积分规则

    广告合作|手机版|Archiver|极品社区

    GMT+8, 2020-2-19 21:07

    Powered by Discuz! X3.3

    © 2001-2017 Comsenz Inc.

    快速回复 返回顶部 返回列表