极品社区

 找回密码
 注册帐号
查看: 72628|回复: 1803
收起左侧

用Nero将WAV、flac、APE+CUE及其他无损文件刻录成CD音乐光盘的图文教程

  [复制链接]
  • TA的每日心情
    开心
    2014-6-7 22:42
  • 签到天数: 1 天

    [LV.1]初来签到

    lcx99229 发表于 2011-6-17 21:48:47 | 显示全部楼层 |阅读模式
    本帖最后由 lcx99229 于 2011-6-18 15:28 编辑

    用Nero将WAV、flac、APE+CUE及其他无损文件刻录成CD音乐光盘的图文教程

      “如何用Nero将WAV(APE)+CUE及其他无损文件刻录成CD音乐光盘”搜索到的方法有很多,看到那些方法都非常麻烦,操作起来不方便。我根据自己摸索,做了一个简单易懂的图文教程,拿出来跟大家分享一下。


           先了解一下常见无损资源的几种格式(注:*.MDS是MEDIA DESCRIPT OR 镜像文件,用Alcohol 120%软件

    作;*.ccd是CloneCD的镜像;*.nrg是NERO的镜像):

    说明:下面的“ ?”号代表文件名

    (1) ?.APE + ?.CUE 文件 一个APE或多个APE
    (2) ?.WAV + ?. CUE 文件 一个WAV或多个WAV
    (3) ?.NRG 文件
    (4) ?.ISO +?.CUE 文件
    (5) ?.CDR文件
    (6) ?.IMG + ?. CCD + SUB 文件
    (7) ?.MDS + ?.MDF 文件
    (8) ?.BIN + ?.CUE + ?.SUB文件

    [注:这里以NERO8为例加以说明]:

    ★★请注意,CUE文件和flac、ape、wav文件名不要用中文,否则提示错误★★

    例:我这里以"非听勿扰·极致男声"[WAV+CUE]为例加以说明:

    原来是:非听勿扰·极致男声.cue 修改为:CDImage.cue

    原来是:非听勿扰·极致男声.wav 修改为:CDImage.wav

    与此同时:[CDImage.cue]文件用记事本打开就可以修改

    步骤:鼠标右击CDImage.cue文件---选择打开方式----再选择记事本 就可以打开修改了。还是不会的朋友直接改CDImage.cue的后缀名,把 cue 改成 txt 就可以直接双击打开了,改好后再改回cue后缀


    例:原来是(后面的歌名部分省略):
    REM DATE 2011
    TITLE "非听勿扰·极致男声 DSD"
    FILE "非听勿扰·极致男声.wav" WAVE
      TRACK 01 AUDIO
        TITLE "陪我看日出(小刚)"
        FLAGS DCP
        INDEX 01 00:00:00
      TRACK 02 AUDIO
        TITLE "走天涯(董瑞)"
        FLAGS DCP
        INDEX 01 04:15:41

    修改为[红色部分]:
    REM DATE 2011
    TITLE "非听勿扰·极致男声 DSD"
    FILE "CDImage.wav" WAVE
      TRACK 01 AUDIO
        TITLE "陪我看日出(小刚)"
        FLAGS DCP
        INDEX 01 00:00:00
      TRACK 02 AUDIO
        TITLE "走天涯(董瑞)"
        FLAGS DCP
        INDEX 01 04:15:41

    改好后测试一下cue是不是可以播放相关文件


    【注意:不管有无CUE文件的APE、flac刻录,nero8都需要下载 [APE插件“nxMyAPE.dll”、


    flac插件nxMyFLA.dll”]】

    回复后下载nero直刻ape-flac插件:
    游客,如果您要查看本帖隐藏内容请回复


    安装插件的方法
    为了不损音乐质量,很多音乐爱好者都想把APE或FLAC格式的音乐直接刻录到CD碟片,网上也介绍了很多种方法,其实都行,但有些较为麻烦。觉得还是直接用NERO刻录比较方便,只是要安装插件。要特别注意的是:插件的位置NERO 7与NERO 8是不同的。
    使用NERO 7的朋友,解压附件后【注意插件名的前面两个字母必须是小写,否则不可以用】,“nxMyAPE.dll”和“nxMyFLA.dll”直接复制到文件夹:
    C:\Program Files\Common Files\Ahead\AudioPlugins

    使用NERO 8的朋友,解压附件后【注意插件名的前面两个字母必须是小写,否则不可以用】,

    nxMyAPE.dll”和“nxMyFLA.dll”直接复制到:
    C:\Program Files\Common Files\Nero\AudioPlugins
    然后你就可以很方便地用NERO将这二种格式的音乐文件直接刻录到CD,且不降低音乐品质了。
    nero 6 同 nero 7一样使用.

    安装好插件后重启nero就可以将有CUE文件的wav、flac、APE刻录成CD音乐光盘了

    刻录步骤:(先放入一张空白的光盘)

    1、运行刻录软件,选择“翻录和刻录”→ “复制光盘”



    2、软件会自动进入下面这个界面:




    3、选择左边的第三项“映像、项目、复制”,然后点击右边的“映像光盘或保存项目”并打开。

    [ (2)(3)(4)(5)类型的资源直接这样刻]


    4、打开“光盘映像或保存项目”后,找到并打开你刚才修改好的CUE文件夹,如图:

    5、选择好cue文件点打开,软件会自动进入下面这个界面


    6、打开上图红色框的箭头可以选择刻录的速度,最好用8倍速刻录,刻录时检测数据打上勾,如图所示:


    7、直接点击右下角的刻录按钮就行了


    8、如果是没有播放列表CUE文件wavflacAPE刻录方法,使用插件可以让Nero直接刻录。运行Nero刻录软件,选择“翻录和刻录”→“刻录音频CD”直接把文件拖到弹出的界面里面就可以了,也可以点击添加按钮选择添加apewavflac 文件直接刻录,如图:


    9、(6)(7)(8)类型的文件,先用虚拟光驱软件Daemon tools 或 Alcohol 52 %将之虚拟成光盘(Alcohol 52 %是Alcohol 120 %的免费版,Alcohol 52 %只是少了Alcohol 120%的刻录功能,光驱可以虚拟6个,推荐使用),然后用NERO的复制光盘功能进行刻录即可



    本帖子中包含更多资源

    您需要 登录 才可以下载或查看,没有帐号?注册帐号

    x

    该用户从未签到

    jason 发表于 2011-6-18 07:52:30 | 显示全部楼层
    好东西支持下。{:soso_e100:}
    回复

    使用道具 举报

    该用户从未签到

    wrigxy 发表于 2011-6-18 07:54:56 | 显示全部楼层
    很实用的技术,对那些重要的、珍贵的资料刻录成光盘更放心。尽管眼下还没有刻录机,收藏此文以备将来需要,谢谢楼主处处为大家着想!
    回复

    使用道具 举报

    该用户从未签到

    会飞的狼 发表于 2011-6-18 09:14:15 | 显示全部楼层
    谢谢分享 很好的资料
    回复

    使用道具 举报

    该用户从未签到

    cheny175 发表于 2011-6-18 13:01:29 | 显示全部楼层
    这个要认真学习啊
    回复

    使用道具 举报

  • TA的每日心情
    飞机
    2017-7-6 17:18
  • 签到天数: 35 天

    [LV.5]签到高级

    风中人 发表于 2011-6-18 17:39:58 | 显示全部楼层
    学习学习一下,看看能不能刻录成功
    回复

    使用道具 举报

    该用户从未签到

    mmmmsheep 发表于 2011-6-18 20:47:03 | 显示全部楼层
    得研究下,看着很复杂
    回复

    使用道具 举报

    该用户从未签到

    wtm0528 发表于 2011-6-18 22:41:51 | 显示全部楼层
    7# mmmmsheep 。。。。。不错啊 支持
    回复

    使用道具 举报

  • TA的每日心情
    郁闷
    2016-5-20 21:27
  • 签到天数: 20 天

    [LV.4]签到中级

    bbcnk 发表于 2011-6-19 00:05:30 | 显示全部楼层
    谢谢分享,试试看,我是NERO 10.
    回复

    使用道具 举报

    该用户从未签到

    53640825 发表于 2011-6-19 13:11:45 | 显示全部楼层
    学习了,谢谢!!!
    回复

    使用道具 举报

    您需要登录后才可以回帖 登录 | 注册帐号

    本版积分规则

    联系我们|手机版|Archiver|极品社区

    GMT+8, 2017-9-26 04:48 , Processed in 1.021612 second(s), 18 queries , Gzip On.

    Powered by Discuz!

    © 2017

    快速回复 返回顶部 返回列表